Suicide Squad 2016 Watch Full

11.01.2017 / free,top, Тут интересно / Комментарии: 0

Suicide Squad 2016

Suicide Squad 2016 Watch Full

Note: This is not the only source and a black ribbon sampling Cinema

Split, rotate, crop, resize, add video quality ultimately merged into one, do not forget to rate this comment

general

Full name: Suicide Squad 2016

Format: MPEG-4

Format profile: the main Media / Version 2

Codec ID: mp42

File size: 711 MiB

Duration: 1 hour 48mn

Total bit rate mode: Variable

Overall bit rate: 921 Kbps

video

ID: 1

Format: AVC

Format / Info: Advanced Video Codec

Formatprofile: / ** /

landscape format, CABAC: Yes

landscape format, framed 4 frames

Codec ID: avc1

Codec ID / Info: Advanced Video Coding

duration: 1 hour 48mn

bit rate: 720 Kbps

Width: 600 pixels

Height: 270 pixels

the aspect ratio of the screen:

frame rate mode: Variable

Frame Rate: fps

Minimum framework: FPS

Maximum frame rate: FPS

Color Space: YUV

Chroma sampling 4: 2: 0

Bit Depth: 8 bits

YangPindai type: Progressive

Bits / (Pixel * Frame):

Stream size: 556 MiB (78%)

pishabiblioteka: x264 core142 r2479 dd79a61

sound

ID: 2

Format: AAC

Format / Info: Advanced Audio Codec

Format profile: LC

Codec ID: 40

Duration: 1 hour 48mn

Bit rate mode: Variable

bit rate: 192 Kbps

Channel (s): 2ch

Channel positions: Front: L R

sample rate: KHz

Mode compression: lossy

Stream size: 149 MiB (21%)

Title: Stereo / Stereo

language:

Squad suicide HDTS 2016 x264-BiGDADDYVAiN

P R E S E N T S ,,

:

T E C H N and C I N F L Oh ..

basic information

Format: Matroska

Format version: Version 4 / Version 2

File: GiB

duration:1 hour 53 minutes

Total bit rate mode: Variable

Overall bit rate: 2069 kb /

Encoded Date: 14/08/2016 19:10:20 UTC

Writing application: mkvmerge ( «beyond the horizon») 64bit

Writing library: libebml + libmatroska

video

ID: 1

Format: AVC

Format / Info: Advanced Video Codec

Format profile: / * * /

landscape format, CABAC: Yes

landscape format, framed: 3 frame

Codec ID: V_MPEG4 / ISO / AVC

Duration: 1 hour 53 minutes

nivobitovModus: Variable

bitrate: 1875 kb /

Maximum transfer speed:Mb / sec

Width: 704 pixels

Height: 288 pixels

screen aspect ratio :: 1

frame rate mode: constant

Frame rate: FPS

Color Space: YUV

Chroma sampling 4: 2: 0

Bit Depth: 8 bits

scan type: Progressive

bit / (Pixel * Frame):

Stream size: GiB (91%)

Writing library: x264 core 148 r2692 64f4e24

Default: Yes

Forced: None

Color: Full

Preliminary colors:

transfer characteristics:

Matrixcoefficients:

sound

ID: 2

Format: MPEG Audio

Format version: Version 1

Format profile: Layer 3

Mode: Stereojoint

Extension Mode: MSstereo

Codec ID: A_MPEG / L3

Codec ID / Hint: MP3

Duration: 1 hour 53 minutes

Bitrate modes: constant

Bit Rate: 192 kb /

Channel (s): 2ch

sample rate: kHz

Frame rate: FPS (SPF 1152)

Mode compression: lossy

Stream size: 156 MiB (9%)

E N C O R E R N A T E S S ..,

:

…… http://www.kuilsriverwatch.co.za/2017/01/10/tcm-bonnie-and-clyde-50th-watch-full/
.. Suicide Squad 2016 online 1080p Subtitles
….:

: Yippers

He added: baikCPG generally kutolewakamaPu need only mistake a different set of eyes. resized, cropped and add chopped diamond filter Ol ‘: wink: thentake the radio line that does not have life and also sprayed down and benches, which we now have is a diamond made of: dirt:

screen:

..

Suicide Squad 2016

Расскажи друзьям!

Добавить комментарий